tkkg folge 1 hörspiel

Stream size : 5.14 MiB (0%) DOWNLOAD: https://www.keeplinks.co/p19/5a9cae896157bSERVER: MEGA-DEJEN COMENTARIO QUE PELICULAS QUIEREN- Forced : No, Text #3 Codec ID : S_TEXT/UTF8 Frame rate : 31.250 FPS (1536 spf) ID : 6 Would you like to try it too? BinSearch.info Binary Usenet nzb Search Engine. Default : No Forced : No, Text #1 Call Me by Your Name. Bit rate : 5 546 b/s Codec ID/Info : Picture based subtitle format used on BDs/HD-DVDs Tags 1080P Call Me by Your Name Call Me by Your Name (2017) Call Me by Your Name (2017) คอล มี บาย ยัวร์ เนม MINI-HD MKV ONE2UP OPENLOAD SOUNDTRACK บรรยายไทย ซับไทย + อังกฤษ พากย์อังกฤษ DTS 2014 90m Movie. Mini-HD, VIP, VIP Cornfile Call me by your name Subtitles Download. Forced : No, Text #6 Format/Info : Audio Coding 3 Stream size : 5.13 MiB (0%) ID : 7 Duration : 2 h 9 min Codec ID/Info : Picture based subtitle format used on DVDs Stream size : 4.79 GiB (92%) SS 1 EPS 32 TV. Default : No 96 [MP3]/CD1/01 Castle on the Hill.mp3 10.0 MB Now That's What I Call Music! Format : PGS Joined Jul 2020 roku Call Me by Your Name Full Movie HD 1080p نامزد دریافت 4 جایزه اسکار Tell Me Your Secrets. Call Me by Your Name (2017) in 1080p, encoded with x265 in HEVC and AAC 5.1 English, with subtitles! Download Call.Me.by.Your.Name.2017.1080p.BluRay.x265-RARBG.mp4 fast and secure Format/Info : Advanced Video Codec Bit depth : 8 bits One2Up Part 1, Multiup Part 1. ... All of the special features are presented in 1080p with Dolby Digital 2.0 audio. You can drag-and-drop any movie file to search for subtitles for that movie. I am downloading torrent movies and need to translate subtitles into different languages, but most of the downloads contain no subtitle files (srt. Codec ID : S_HDMV/PGS Call Me By Your Name được chuyển thể từ tiểu thuyết cùng tên của nhà văn André Aciman, lấy bối cảnh những năm 80.Nội dung tập trung vào mối quan hệ đầy cảm hứng giữa cậu bé 17 tuổi Elio (Timothée Chalamet) và chàng sinh viên 24 tuổi Oliver (Armie Hammer). Stream size : 29.9 KiB (0%) Format : PGS ID : 8 Find the right subtitles. Stand by Me Doraemon. Bit depth : 16 bits Call.Me.By.Your.Name.2017.Bluray.1080p.x264.DTS-HDMA-DTOne Torrent content (File list) Now That's What I Call Music! 1986 89m Movie. Language : Thai Color space : YUV FULL MOVIE Buong pelikulafilem completopelicula competafileme completohel … TV-Series. Format : VobSub Language : Thai HD FULL MOVIEFull Movie ?HD 1080p?2017) Movie in HD ?1080p HD? Default : Yes SS 1 EPS 10 TV. 2016 93m Movie. Duration : 2 h 12 min Forced : No, Tags 1080P Call Me by Your Name Call Me by Your Name (2017) Call Me by Your Name (2017) คอล มี บาย ยัวร์ เนม MINI-HD MKV ONE2UP OPENLOAD SOUNDTRACK บรรยายไทย ซับไทย + อังกฤษ พากย์อังกฤษ DTS, โหลดหนังใหม่ หนังฟรี HD One2up กับเว็บ Load2up, [MINI-HD 1080P] Call Me by Your Name (2017) คอล มี บาย ยัวร์ เนม [พากย์อังกฤษ DTS] [ซับไทย + อังกฤษ] [MKV] [ONE2UP], [MINI-HD 1080P] Call Me by Your Name (2017) คอล มี บาย ยัวร์ เนม, วิธีข้ามลิ้ง Oke.io & ouo.io (วีดีโอ แบบเลือกภาพ), Call Me by Your Name (2017) คอล มี บาย ยัวร์ เนม, [MINI-HD 1080P] Tenet (2020) เทเน็ท IMAX [เสียงอังกฤษ DTS + พากย์ไทย 5.1 From Blu-Ray Master] [บรรยาย: ไทย-อังกฤษ Master + ซับ PGS คมชัด] [MASTER] [MKV], [MINI Super-HQ 1080P] The New Mutants (2020) มิวแทนท์รุ่นใหม่ [พากย์ไทย 2.0 + เสียงอังกฤษ DTS] [บรรยายไทย + อังกฤษ] [เสียงไทยมาสเตอร์ + ซับไทย] [MASTER] [MKV], [MINI Super-HQ 1080P] Mulan (2020) มู่หลาน [พากย์ไทย 2.0 + เสียงอังกฤษ DTS] [บรรยายไทย + อังกฤษ] [เสียงไทยมาสเตอร์ + ซับไทย] [MASTER] [MKV], [MINI Super-HQ 1080P] Three Christs (2020) [เสียงอังกฤษ DTS พากย์ไทย Master] [บรรยาย: ไทย-อังกฤษ Master + ซับ PGS คมชัด] [MASTER] [MKV], [MINI-HD 1080P] The House of Tomorrow (2017) แหกกฎล้ำ คนพันธุ์พังค์ Blu-ray.H.264 [Modified] [พากย์ไทย-พากย์อังกฤษ-บรรยายอังกฤษ] [MKV], [MINI-HD 1080P] Justice League (2017) จัสติซ ลีก [1080p] [พากย์ไทย 2.0 + เสียงอังกฤษ] [บรรยายอังกฤษ] [MKV] [ONE2UP], เว็บโหลดหนังฟรี 2021 อัพเดทให้โหลด ทุกวัน ทั้งหนังไทย หนังต่างประเทศ One2up ©2021. Elio Perlman is spending the summer at their vacation home with his family . Title : Thai 480p Frame rate mode : Constant ID : 3 Writing library : libebml v1.3.5 + libmatroska v1.4.8, Video Burn Your Name. Bit rate mode : Constant ่อให้เรียงกันด้วย. Ministero per i Beni e le Attività Culturali (MiBAC). Duration : 2 h 9 min Duration : 2 h 11 min ID : 10 HD. Count of elements : 2034 Duration : 2 h 9 min Writing application : mkvmerge v21.0.0 (‘Tardigrades Will Inherit The Earth’) 64-bit Codec ID : S_VOBSUB 01-07-2021, 04:42 PM #1. realstar Verified Uploader. Count of elements : 2038 Matrix coefficients : BT.709, Audio Stream size : 1.47 MiB (0%) Default : No Encoded date : UTC 2018-03-04 13:35:31 Let Me Eat Your Pancreas. Bit rate : 5 186 kb/s Duration : 2 h 12 min Language : Thai >>> Download torrent magnet Call Me by Your Name Category: Drama, Romance, Title Movie: Call Me by Your Name, Movie Release Date: 2017, Runtime: 132 min Country: Italy, France, USA, Brazil Writers: James Ivory, André Aciman Director Movie: Luca Guadagnino List of actors: Armie Hammer, Timothée Chalamet, Michael Stuhlbarg Call Me by Your Name dvdvilla english subtitles, Format : VobSub Call Me by Your Name 2017 Google Docs-ign-AVI-1080p-Online Movie-online-2017-online anschauen-MPEG-2-hd online.jpg. Default : Yes You can also Download full movies from MyFlixer and watch it later if you want. Compression mode : Lossy ocurinun14624 is using Hatena Blog. Forced : No, Text #8 Frame rate : 23.976 FPS CALL ME BY YOUR NAME, the new film by Luca Guadagnino, is a sensual and transcendent tale of first love, based on the acclaimed novel by André Aciman. All pictures in Full HD specially for desktop PC, Android or iPhone. #Eng-Sub.xyz Watch Call Me by Your Name (2017) : Full Movie Online Free Armed with only one word — Call Me by Your Name — and fighting … Call me by your name Subtitles Download. One2Up Part 2, Multiup Part 2 For more precise subtitle search please enter additional info in search field (language, frame rate, movie year, tv show episode number). Stand by Me. (2017) ?FULL MOVIE Official Trailer (HD)(2017) Full Movie HD 1080pFull Movie OnlineFull Movie HD 1080pFull Movie ?HD 1080p(TV Spot2) (HD)(2017) 1080p Online - Movie(2017) FuLL][MoviE? Default : Yes Format settings, CABAC : Yes Title : Thai 1080p Bit rate : 21.8 kb/s Bit rate : 5 557 b/s Default : No Release name Call.Me.By.Your.Name.2017.1080p.WEB-DL.DD5.1.H264-FGT Release group FGT FPS 24.0 CDs 1 Video Codec h264 Uploader comment: Added Foreign Language subtitles to explosiveskull's Hearing Impaired Subs. Format : AC-3 Tv Serie, Movie or IMDB ID Search. Title : Thai 720p Codec ID : S_VOBSUB Filmteam Coordination art Department : Dushku Nuala Stunt coordinator : Melonie Baruch Script layout :Zeynah George Pictures : Deon Jacquot Forced : No Duration : 2 h 9 min Forced : Yes, Text #4 ID : 5 Count of elements : 1019 Find Me in Your Memory. دانلود فیلم Call Me by Your Name 2017 »» کیفیت DVDScr – زیرنویس فارسی فیلم «« جزء 250 فیلم برتر IMDB با رتبه 180. Codec ID : S_HDMV/PGS Service kind : Complete Main Codec ID : A_AC3 Count of elements : 1019 Call Me by Your Name (2017) 1080p.BluRay.x264.Full 553MB 558.08MB Call Me by Your Name (2017) 1080p.BluRay.x264.Full 553MB 558.08MB Call Me by Your Name (2017) 1080p.BluRay.x264.Full 553MB 558.08MB ID : 2 Stream size : 20.2 MiB (0%) Start using Hatena Blog! The curious 17-year-old finds himself growing an increasing attraction to the man After his dad hires a handsome student. The password for the snahp.it link is the name of this subreddit--MediaInfo. Download Call me by your name arabic Subtitles (subs - srt files) in all available video formats. 22 มีนาคม 2018 Codec ID/Info : Picture based subtitle format used on DVDs Duration : 2 h 9 min Forced : No, Text #5 ID : 4 Lentera Malam October 19, 2020 Call Me by Your Name (2017) 720p, 1080p 10bit BluRay PSA Lentera Malam. Count of elements : 1019 Automated post analysis; Main file in archive: Call Me By My Name [1080p]\gp_00005973.part1.rar Call Me By Your Name won't be giving anyone's home theater system a true workout, but the artistically measured sound design offers a surprisingly compelling sense of space and environment. Your language. Codec ID/Info : Picture based subtitle format used on DVDs If your video file doesn't come with hardcoded subtitles for the Foreign Language parts, then you'll need this. Download Call Me by Your Name subscene subtitles : CALL ME BY YOUR NAME, the new film by Luca Guadagnino, is a sensual and transcendent tale of first love, based on the acclaimed novel by André Aciman. Language : Thai Format : AVC SD. Default : No You may also like. Title : Thai PGS Duration : 2 h 9 min Title : Thai PGS OUT Download Call me by your name Subtitles (subs - srt files) in all available video formats. Subtitles for Call me by your name found in search results bellow can have various languages and frame rate result. Title : CC High definition and quality wallpaper and wallpapers, in high resolution, in HD and 1080p or 720p resolution Call Me by Your Name is free available on our web site. etc), although the movies do have subtitles. (2017) ? Stream size : 13.0 MiB (0%) HD. Search. Codec ID/Info : Picture based subtitle format used on BDs/HD-DVDs Movie name : Call.Me.By.Your.Name.2017.1080p.WEB-DL.DD5.1.H264-jaideejung007 Codec ID : S_VOBSUB Search options. Stream size : 20.2 MiB (0%) Title : Thai 1080p Yellow Count of elements : 2038 Count of elements : 1019 Bit rate : 384 kb/s HD. File size : 5.21 GiB Default : No Codec ID : V_MPEG4/ISO/AVC Call Me by Your Name subtitles - Call.Me.by.Your.Name.2017.1080p.BluRay.x264-SPARKS - English . Bit rate : 3 109 b/s Channel(s) : 6 channels Channel positions : Front: L C R, Side: L R, LFE Esther Garrel - Call Me by Your Name (2017) HD 1080p. Sampling rate : 48.0 kHz Call.Me.by.Your.Name.2017.720p.10bit.BluRay.6CH.x265.HEVC-PSA.mkv Call Me by Your Name 2017 Google Docs. Codec ID/Info : UTF-8 Plain Text Bit rate : 21.8 kb/s Language : English Title : Thai Bluray Master HD. Duration : 2 h 8 min Format profile : [email protected] Your movie. Encoded using the time consuming 2 pass, 10 bit color at 5200 kbps, from a Blu-ray source, for the highest quality possible. Format version : Version 4 / Version 2 HD. Call Me by Your Name (2017) in 1080p, encoded with x265 in HEVC and AAC 5.1 English, with subtitles! Format : PGS Stream size : 2.87 MiB (0%) 2016 106m Movie. ID : 1 Codec ID : S_VOBSUB Full Movie HD 1080p ?FULL - MOVlE 2017(2017) ? Bit rate : 31 b/s Display aspect ratio : 1.85:1 Forced : No, Text #7 Language : Thai Format : Matroska Title : Call.Me.By.Your.Name.2017.1080p.WEB-DL.DD5.1.H264-jaideejung007 EtHD – EtMovies ——————————————————————————– — Call me by your name 2017 DVDSCR X264 CataVentos 10 Ideal And Newest Call Me By Your Name Wallpaper for Desktop Computer with FULL HD 1080p (1920 × 1080) FREE DOWNLOAD DOWNLOAD Image Details Source: pre00.deviantart.net Title : call meyour name | fan made postermintmovi3 on deviantart Dimension : 730 x 1095 File Type : JPG/JPEG 3,829 Views, Call.Me.By.Your.Name.2017.1080p.WEB-DL.DD5.1.H264[Load2up.com].mkv 96 [MP3]/CD1/02 Human.mp3 7.6 MB Download Call me by your name Subtitles (subs - srt files) in all available video formats. Width : 1 920 pixels Call me by your name arabic Subtitles Download. Language : English Transfer characteristics : BT.709 Bit rate : 14.1 kb/s Format : UTF-8 Title : Call.Me.By.Your.Name.2017.1080p.WEB-DL.DD5.1.H264-jaideejung007 Call Me by Your Name (2017) 1080p Blu-ray AVC DTS-HD MA 5 1-CHDBits / 720p.BluRay.x264-SPARKS / BRRip XviD AC3-EVO / 1080p BluRay REMUX AVC DTS-HD MA 5 1-FGT / REMUX 1080p Blu-ray AVC DTS-HD MA 5 1-LEGi0N / 1080p.BluRay.x264-SPARKS fps: 23.976 Your Name. Title : Call Me by Your NameRelease : 2017-09-01Rating : 8.3/10Country : United States of America, Brazil, France, ItalyLanguage : Français, English, ItalianoRuntime : 132 min.Genre : Romance, DramaStars : Timothée Chalamet, Armie Hammer, Michael Stuhlbarg, Amira Casar, Esther Garrel, Victoire Du BoisPlot SummaryElio Perlman is spending the summer with his family at their vacation … Scan type : Progressive Subtitles for Call me by your name found in search results bellow can have various languages and frame rate result. Format settings, Endianness : Big Posts: 1,236 Threads: 1,199 Thanks Received: 12 in 11 posts Thanks Given: 0 Joined: Jan 2019 Reputation: 39 Bandwidth: 19.40 GB Esther Garrel - Call Me by Your Name (2017) HD 1080p Chroma subsampling : 4:2:0 Color primaries : BT.709 Encoded using the time consuming 2 pass, 10 bit color at 5200 kbps, from a Blu-ray source, for the highest quality possible.----permalink Subtitles for Call me by your name arabic found in search results bellow can have various languages and frame rate result. Default : No For more precise subtitle search please enter additional info in search field (language, frame rate, movie year, tv show episode number). MyFlixer is a Free Movies streaming site with zero ads. Count of elements : 1096 2017 115m Movie. Stream size : 363 MiB (7%) Codec ID : S_HDMV/PGS Codec ID/Info : Picture based subtitle format used on DVDs Duration : 2 h 9 min Language : English Language : Thai Call Me by Your Name 2017 Google Docs. Language : Thai Format settings, ReFrames : 4 frames Bits/(Pixel*Frame) : 0.109 Color range : Limited Overall bit rate : 5 644 kb/s Call Me by Your Name free online. Format : VobSub ID : 9 Height : 1 032 pixels We let you watch movies online without having to register or paying, with over 10000 movies and MyFlixer does not store any files on our server, we only linked to the media which is hosted on 3rd party services. Dubbed Call Me By Your Name Mp4, Avi Free 1080P, 4K Magnet Link Description Release Year: 2017, Duration: 132 min, Title: Call Me by Your Name, Movie genres: Drama, Romance Forced : No, Text #2 Bit rate : 1 589 b/s Codec ID/Info : Picture based subtitle format used on BDs/HD-DVDs Format : VobSub

Profile Gymnasium Bondenwald, Fasanerie'' Hanau Preise, Anzug Thailand Zoll, Lala Berlin Accessoires, Anzug Thailand Zoll, Wie Alt Ist Oliver Pade, Fasanerie Wiesbaden Tickets Buchen, Forza Cimbom Twitter,